La vente des droits du film à CBS All Access et à Netflix permettent à Paramount Pictures de rembourser le budget de 60 millions de dollars du film. Bob l'Eponge - le film : éponge en eaux troubles sort aujourd'hui exclusivement dans les cinémas Canadiens ! Bob l'éponge le film : Éponge en eaux troubles . mais aussi Sans un bruit 2 et Top Gun: Maverick. Suite à l’escargotnapping de Gary, son compagnon de toujours, Bob entraîne Patrick dans une folle aventure vers la Cité Perdue d’Atlantic City afin de le retrouver. Vous pouvez donner votre avis sur Bob l'éponge - Le film : Éponge en eaux troubles ici : OnaRegarde-PourVous.com . Film en VF ou VOSTFR. Bob l'éponge - Le film : Éponge en eaux troubles. Dans le reste du monde, sauf aux États-Unis et en Chine, le film sera distribué sur le service Netflix. Bob l'éponge, le film: Éponge en eau troubles [Textless, 2000*3000px, 0.85mb] 1 of 9 high-resolution movie posters in this group. Être notifié d'une mise à jour sur l'article, Gestion des problèmes et activités du site. Suite à l’escargotnapping de Gary, son compagnon de toujours, Bob entraîne Patrick dans une folle aventure vers la Cité Perdue d’Atlantic City afin de le retrouver. Voir Films & Series En film01stream.org . Please try again later. Bob l'éponge, le film: Éponge en eau troubles. MoviePosterDB is not endorsed, sponsored or affiliated with any movie studio. Tout baigne à Bikini Bottom pour Bob l’éponge, l’éternel optimiste et ses amis: Patrick l’étoile de mer fidèle, Carlo le calamar égoïste, Sandy l’écureuil et Monsieur Krabs, le crustacé obsédé par l’argent! This site uses cookies to collect usage information and show advertisements based on your personal preferences. ATTENTION : Des sites (les copieurs) tenteront de vous arnaquer. Mikros Animation a le plaisir d’annoncer que BOB L’ÉPONGE LE FILM : ÉPONGE EN EAUX TROUBLES. Bob l'éponge - Le film : Éponge en eaux troubles Bande annonce VF. Et VO .Voir Bob l'éponge le film : Éponge en eaux troubles En streaming Notre seul domaine officiel pour le Telechargement : Paramount Pictures a annoncé la nouvelle date de sortie de Bob l’Éponge : Éponge en Eaux Troubles ! Using images from MoviePosterDB to make and/or sell reprinted movie posters is strictly forbidden. Paramount Pictures vient de dévoiler la première bande-annonce du film d'animation « Bob l'éponge, le film : Éponge en eaux troubles », réalisé par Tim Hill, dont la sortie en salles est prévue pour 2020. Selon le générique de la bande originale du film, la piste s’intitule «How We Do» et a été écrite par Snoop Dogg lui-même, Tim Hill, Ali Dee et Alex Geringas. This site is for non-profit/educational use only. Aux États-Unis, Viacom a annoncé la sortie du film en VOD début 2021, avant de le rendre disponible sur All Access, le site de streaming de la chaîne CBS A travers cette mission sauvetage pleine de surprises, de merveilles et de dangers, Bob l’Éponge et ses acolytes vont réaliser que rien n’est plus fort que le pouvoir de l’amitié. Il ne faudra peut-être pas attendre 2021 pour découvrir le dernier film mettant en scène « Bob l’éponge carré » : « Bob l'éponge : éponge en eaux troubles ». Vous pouvez donner votre avis sur Bob l'éponge - Le film : Éponge en eaux troubles ici : OnaRegarde-PourVous.com . Regarder Bob l'éponge le film : Éponge en eaux troubles . Beiträge über Allgemein von jean6788. Bob, l'éponge carrée la plus célèbre de l'histoire, est de retour dans un long-métrage : Bob l’éponge, éponge en eaux troubles__. Le film : Éponge en eaux troubles Bande-annonce VF De Tim Hill Sortie le 5 août 2020. Countdown der verbleibenden Tage bis zur Veröffentlichung des Films "Bob l'éponge, le film: Éponge en eau troubles " in Deutschland. All copyrights, trademarks, and logos are owned by their respective owners. After SpongeBob's beloved pet snail Gary is snail-napped, he and Patrick embark on an epic adventure to The Lost City of Atlantic City to bring Gary home. Sortie le 5 novembre 2020 | 1h 31min. 98 talking about this. Description sur Bob l'éponge : éponge aux eaux troubles - Le film. ZT-ZA.COM Pour l'ajouter à vos favoris, tapez : CTRL + D, Vous pouvez donner votre avis sur Bob l'éponge - Le film : Éponge en eaux troubles ici : sera disponible sur Netflix à partir du 5 novembre 2020 dans tous les pays sauf les États-Unis et le Canada.. BOB L’ÉPONGE LE FILM : ÉPONGE EN EAUX TROUBLES est synonyme de plaisir, d’aventure, d’environnements inventifs et de personnages adorables. OnaRegarde-PourVous.com, Téléchargement Sécurisé : Bob l'éponge - Le film : Éponge en eaux troubles (14 jours gratuits), GeneralUnique ID : 228404007901964590910405277323482303209 (0xABD50306DFD9A4CBAE76A2D6BBE70AE9)Complete name : The.Spongebob.Movie.Sponge on the Run.2020.MULTi.1080p.WEB.x264-PREUMS.mkvFile size : 3.51 GiBDuration : 1 h 35 minOverall bit rate : 5 266 kb/s, Width : 1 920 pixelsHeight : 1 080 pixelsDisplay aspect ratio : 16:9Frame rate mode : ConstantFrame rate : 23.976 (24000/1001) FPSColor space : YUVChroma subsampling : 4:2:0Bit depth : 8 bitsScan type : ProgressiveBits/(Pixel*Frame) : 0.080Stream size : 2.65 GiB (76%)Language : EnglishDefault : YesForced : No, Audio #1ID : 2Format : E-AC-3Format/Info : Enhanced AC-3Commercial name : Dolby Digital PlusCodec ID : A_EAC3Duration : 1 h 35 minBit rate mode : ConstantBit rate : 640 kb/sChannel(s) : 6 channelsChannel layout : L R C LFE Ls RsSampling rate : 48.0 kHzFrame rate : 31.250 FPS (1536 SPF)Compression mode : LossyStream size : 437 MiB (12%)Title : FrenchLanguage : FrenchService kind : Complete MainDefault : YesForced : No, Audio #2ID : 3Format : E-AC-3Format/Info : Enhanced AC-3Commercial name : Dolby Digital PlusCodec ID : A_EAC3Duration : 1 h 35 minBit rate mode : ConstantBit rate : 640 kb/sChannel(s) : 6 channelsChannel layout : L R C LFE Ls RsSampling rate : 48.0 kHzFrame rate : 31.250 FPS (1536 SPF)Compression mode : LossyStream size : 437 MiB (12%)Title : EnglishLanguage : EnglishService kind : Complete MainDefault : NoForced : No, Text #1ID : 4Format : UTF-8Codec ID : S_TEXT/UTF8Codec ID/Info : UTF-8 Plain TextDuration : 1 h 30 minBit rate : 2 b/sCount of elements : 48Stream size : 1.49 KiB (0%)Title : ForcedLanguage : FrenchDefault : YesForced : No, Text #2ID : 5Format : UTF-8Codec ID : S_TEXT/UTF8Codec ID/Info : UTF-8 Plain TextDuration : 1 h 30 minBit rate : 51 b/sCount of elements : 1373Stream size : 34.1 KiB (0%)Title : FrenchLanguage : FrenchDefault : NoForced : No, Bob l'éponge - Le film : Éponge en eaux troubles. La sortie de ce troisième film sur les aventures de Bob l’éponge était initialement prévue en juillet 2020 au cinéma, mais la crise du coronavirus a poussé Paramount a retardé la sortie. Le film est sorti au Canada et au Québec le 14 août 2020 dans les salles de cinéma. Le géant du streaming a récupéré les droits à l’international pour Bob l’Éponge : Éponge en Eaux Troubles. Discover 9 high-resolution movie posters of Bob l'éponge, le film: Éponge en eau troubles (Animation, Adventure, Comedy, Family) on MoviePosterDB. nouveau long-métrage à destination des salles obscures.. En raison de la crise sanitaire du Covid-19, Paramount Pictures a décidé de reporter plusieurs de ses futurs films comme Bob l’Éponge : Éponge en Eaux Troubles ! De Tim Hill. All images on MoviePosterDB.com are intended for non-commercial entertainment and education use only - reviews, fan art, blogs, forums, etc. 3,0. Au cinéma le 18 février 2015 en 3D ! Les deux artistes ont collaboré sur une partie de piste pour le film Bob l’Éponge – Le film : Éponge en eaux troubles. ATTENTION: NOTRE UNIQUE NOM DE DOMAINE : ZT-ZA.COM ! Presse . Bienvenue sur la page officielle française du nouveau film BOB L'EPONGE. Regarder tous films en streaming complet . Entre les reports de date ou les annulations, l’été 2020 ne sera pas aussi riche en films que prévu. Le long-métrage Bob l'éponge : éponge en eaux troubles en est l’exemple. This feature is not available right now. Soyez vigilant et surveillez sans cesse votre barre d'adresse pour savoir où vous êtes réellement ! Suite à l’escargotnapping de Gary, son compagnon de toujours, Bob entraîne Patrick dans une folle aventure vers la Cité Perdue d’Atlantic City afin de le retrouver.

Saison Orange Sicile, Loïc, Fou De Cuisine Falafel, Cinéma Mac-mahon Contact, Travaux Effectués Par Le Locataire Indemnisation, Les Verbes Au Présent à Imprimer, Les Blessés Du Stade Rochelais, Marché Nocturne Bidart,